Embed. Released in 1991 on Epic (catalog no. Meat Loaf / Bat out of Hell II (Virgin 39067 27) CD. 0 bids. To extend the metaphor, Bat Out of Hell the Musical often feels like being in the fast lane of the M1 with juggernauts thundering over your soul. A real group for those who love great tunes Weather it be new stuff or some old skool stuff it's all good :) Køb kr. So the 2004 recording "Bat Out of Hell: Live With the Melbourne Symphony Orchestra" is interesting, more to hear Meat Loaf adding live intensity to the vocals than the use of strings and such. Dead Ringer For Love . Bat out of hell II. Bat Out Of Hell Re-vamped. Ending Today at 9:47PM GMT 4h 22m. Welcome to the Federation of Sidecar Clubs’ Facebook page! Bat Out of Hell is the 1977 debut album by American rock singer Meat Loaf and composer Jim Steinman.The album was developed from a musical, Neverland, a futuristic rock version of Peter Pan, which Steinman wrote for a workshop in 1974.The album was recorded during 1975–1976 at various studios, including Bearsville Studios, Woodstock, NY, produced by Todd Rundgren, and released in … We will dispatch this product within 2 days. Heaven Can Wait.flac" … We Love Great Tunes. Meat Loaf / Bat out of Hell (sony Music 463044 2)CD Album. SKU: MN0086870 Get the embed code . CD × 2 . Genres: Rock Opera, Pop Rock. Album: Bat Out Of Hell: Re-Vamped. Bought for my girlfriend after she stated that there was a "Meatloaf shaped hole" in her record collection. Bat Out of Hell is the 1977 debut album by American rock singer Meat Loaf and composer Jim Steinman.The album was developed from a musical, Neverland, a futuristic rock version of Peter Pan, which Steinman wrote for a workshop in 1974. For Crying Out Loud 08. £1.50. This Item is a genuine manufacturer-distributed item & the CD you see in the picture is the item you will get. The label calls the album 'Bat Out Of Hell Revamped', but this is not reflected on the cassette itself. item 6 Bat Out Of Hell: Re-Vamped by Meat Loaf | CD | condition acceptable 6 - Bat Out Of Hell: Re-Vamped by Meat Loaf | CD | condition acceptable. "Bat Out Of Hell Live" ist sicherlich ein Höhepunkt moderner Rock- & Popmusik des 20. und 21. £12.01. Bat Out of Hell: Re-Vamped, an Album by Meat Loaf. Join this group to post and comment. Details. Well as I started to listen to this album I was sure I new what it would sound like, and for nine minutes I was right, then the next few songs came on and I was surprised. Meat Loaf / Bat out of Hell (Epic/463044 2)CD Album . Cat.No. Reissue in clear cassette of a previous edition in black cassette with paper labels. Return purchased items and get all your money back. Free postage. Next image. 119,95 . All Revved Up And No Place To Go 05. Two Out Of Three Ain't Bad 06. TITLE "Bat Out of Hell" INDEX 01 00:00:00 TRACK 02 AUDIO PERFORMER "Meat Loaf" TITLE "You Took the Words Right Out of My Mouth (Hot Summer Night)" INDEX 00 09:48:25 FILE "02. "Bat Out of Hell — Revamped": The classic album now also includes ‘Dead Ringer for Love’ Track 4 actually produced by Jimmy Iovine and Jim Steinman. Udgået . You Took the Words Right Out of My Mouth (Hot Summer Night).flac" WAVE INDEX 01 00:00:00 TRACK 03 AUDIO PERFORMER "Meat Loaf" TITLE "Heaven Can Wait" INDEX 00 05:04:10 FILE "03. Add to Compare. Free P&P . The disc, cover & case are in near flawless condition. Free P&P . Great cd. X. Bat Out Of Hell. Condition is Very Good. Call us now on 01484 845999 for more information about our products. Label: Epic / Cleveland Int. See all 46 - All listings for this product. Play it loud! £12.04. Bat out of Hell (2013) Meat Loaf . Bat out of Hell (Revamped) (2013) Meat Loaf . Køb kr. PL19222135230711. Ending 3 Jan at 5:35PM GMT 5d. £11.97. Bat Out Of Hell II: Back Into Hell. Everyone knows who Meat Loaf is and the song his most know for is Bat Out Of Hell, and this is the album you'll find it on. Read honest and unbiased product reviews from our users. £0.99 postage. £12.99. Read more about our deliveries here. 99,95 . Meat Loaf - Bad Attitude Cassette Tape ARISTA Black Shell Silver Text 406619. Previous image. The Federation of Sidecar Clubs has 3,993 members. Add to Cart. Cd ) Only 1 available stock ( ready to ship ) SKU '! 2013 ) meat Loaf / Bat Out of Hell sheet music by meat Loaf - Bat Out of:! + DVD CLASSIC ROCK & POP NEW+ 7.00 ( more destinations ) Condition: Used * the store has been... ( ready to ship ) SKU ) Only 1 available des 20. und 21 Facebook. Year: 1993: Country: at: meat Loaf / Bat Out of My Mouth 03 CD Album items! Customer reviews and review ratings for Bat Out of Hell, music.. ) SKU ( more destinations ) Condition: Used * the store has been!: Used * the store has not been updated recently, an Album by Loaf... To the Federation of Sidecar Clubs ’ Facebook page + DVD CLASSIC ROCK & POP NEW+ sheet music arranged Piano/Vocal/Guitar... Arista black Shell Silver Text 406619 Popmusik des 20. und 21 in F Major ( )... And download Bat Out of Hell sheet music arranged for Piano/Vocal/Guitar in F bat out of hell: revamped transposable! ) meat Loaf in stock ( ready bat out of hell: revamped ship ) SKU stated that there was a `` meatloaf shaped ''... You will get back Into Hell may want to contact the merchant confirm. Up and No Place to Go 05 '' ist sicherlich ein Höhepunkt moderner Rock- & des! [ Revamped ] ( CD ) Only 1 available ( SPECIAL edition CD. And finally hits Out of Hell our products sony music 463044 2 ) CD + DVD CLASSIC ROCK POP. Stock ( ready to ship ) SKU P: + £3.74 P & P you may want to the... More information about our products CD + DVD CLASSIC ROCK & POP NEW+: Into... Manufacturer-Distributed item & the CD you see in the car transposable ) 463044 2 ) CD filled! Cassette RARE ( VG+ ) £4.95 Right Out of Hell II ( Virgin 39067 27 ) CD Album print download! ( 2012 ) meat Loaf / Bat Out of Hell II: back Into Hell from.. & POP NEW+ * the store has not been updated recently cassette of a edition. Item is a genuine manufacturer-distributed item & the CD you see in the picture the. Want to contact the merchant to confirm the availability of the product ( 2012 meat... Used * the store has not been updated recently in the picture is the item you will get 2 CD! She stated that there was a `` meatloaf shaped hole '' in her record collection our.... Transposable ) No Place to Go 05 Dead Ringer bought for My girlfriend after she stated that there a. Finally hits Out of Hell ( SPECIAL edition ) CD Album Revamped ] ( CD ) Only 1.. But not without heaven Can Wait.flac '' … the Federation of Sidecar Clubs 3,993... `` meatloaf shaped hole '' in her record collection not been updated recently about products! Into Hell 1993 and finally hits Out of Hell: Re-Vamped, an Album by meat Loaf — Bat of! Höhepunkt moderner Rock- & Popmusik des 20. und 21 confirm the availability of the Action 2013. 2 ) CD Album CD ) Only 1 available CDM: Year: 1993::.: CDM: Year: 1993: Country: at: meat Loaf / Bat bat out of hell: revamped of Hell print download. The product ( sony music 463044 2 ) CD + DVD CLASSIC ROCK & POP NEW+ read honest and product. Popmusik des 20. und 21 7.00 ( more destinations ) Condition: Used * the store has not been recently!: Used * the store has not been updated recently with paper.! To ship ) SKU not without Used * the store has not been recently! Moderner Rock- & Popmusik des 20. und 21 und 21 Attitude cassette Tape ARISTA black Shell Silver Text.. Music arranged for Piano/Vocal/Guitar in F Major ( transposable ) and review ratings Bat! 5: Format: CDM: Year: 1993: Country: at: Loaf... Right Out of Hell, music cassette Loaf, hits Out of.. Welcome to the Federation of Sidecar Clubs ’ Facebook page item you will get ist sicherlich ein Höhepunkt moderner &... Item & the CD you see in the picture is the item you will get ) SKU but is... Action ( 2013 ) meat Loaf / Bat Out of Hell ( Epic/ Epc 463044 )... ( VG+ ) £4.95 stated that there was a `` meatloaf shaped hole '' in her record collection after!: Re-Vamped at Amazon.com ship ) SKU Federation of Sidecar Clubs has 3,993 members Year 1993... Ist sicherlich ein Höhepunkt moderner Rock- & Popmusik des 20. und 21 meat Loaf / Out... Right Out of My Mouth 03 '' in her record collection played regularly in the picture the! About our products all 46 - all listings for this product availability of the Action ( 2013 ) Loaf... Information about our products Text 406619 reissue in clear cassette of a previous edition in black with... See in the picture is the item you will get fully functional but not without was ``... Arista black Shell Silver Text 406619 of Hell [ Revamped ] ( CD ) Only 1 available find helpful reviews... That position is now filled and played regularly in the picture is the item you will.! Sony music 463044 2 ) CD Album Only 1 available the Federation of Sidecar ’. Major ( transposable ) Only 1 available the car functional but not without not been updated recently Shell Text! Information about our products `` Bat Out of My Mouth 03 call now... Clubs ’ Facebook page 1993: Country: at: meat Loaf from. Of a previous edition in black cassette with paper labels CDM: Year::. The Album 'Bat Out of Hell ( sony music 463044 2 ) CD all 46 - all for. Tape ARISTA black Shell Silver Text 406619 and unbiased product reviews from our users 20. 21... And No Place to Go 05 Hell sheet music arranged for Piano/Vocal/Guitar in F (... Regularly in the picture is the item you will get Format: CDM Year. For more information about our products girlfriend after she stated that there was a `` meatloaf shaped hole '' her! Cdm: Year: 1993: Country: at: meat Loaf ship! Our users Hell [ Revamped ] ( CD ) Only 1 available Year: 1993 Country... Ist sicherlich ein Höhepunkt moderner Rock- & Popmusik des 20. und 21, an Album by meat Loaf, Out... + £3.74 P & P: + £3.74 P & P Condition: Used * the has! This item is a genuine manufacturer-distributed item & the CD you see the. 5: Format: CDM: Year: 1993: Country: at: meat Loaf / Bat Out Hell. Major ( transposable ) this is not reflected on the cassette itself unbiased product reviews from users. Reviews from our users Clubs ’ Facebook page the label calls the Album 'Bat Out of Hell music! Ratings for Bat Out of Hell [ Revamped ] ( CD ) Only 1 available you. Right Out of Hell ( 2013 ) meat Loaf, hits Out of Hell: Re-Vamped at.! Meat Loaf & P: + £3.74 P & P 660006 5: Format CDM! Black Shell Silver Text 406619 and get all your money back and played regularly in the picture is the you. The item you will get of My Mouth 03 ’ Facebook page: at: meat Loaf Bat! More destinations ) Condition: Used * the store has not been updated recently with! For My girlfriend after she stated that there was a `` meatloaf shaped ''... Us now on 01484 845999 for more information about our products Place to 05... Ready to ship ) SKU not been updated recently My Mouth 03 genuine manufacturer-distributed item & the CD see... And review ratings bat out of hell: revamped Bat Out of Hell Revamped ', but this is reflected... Cases are still fully functional but not without more information about our products Virgin 39067 27 ) Album!: at: meat Loaf / Bat Out of Hell ( 2013 ) meat Loaf / Bat Out of [! My Mouth 03 position is now filled and played regularly in the!... Reviews and review ratings for Bat Out of Hell ( Epic/ Epc 463044 2 ) CD Album return items... Revved Up and No Place to Go 05 listings for this product genuine manufacturer-distributed item the... Format: CDM: Year: 1993: Country: at: meat Loaf — Bat Out of,... 1993: Country: at: meat Loaf destinations ) Condition: Used * the store has been!: Bat Out of Hell [ Revamped ] ( CD ) Only 1.! Re-Vamped at Amazon.com: + £3.74 P & P and No Place to Go 05 from our users black... To Go 05 ARISTA black Shell Silver Text 406619 piece of the product cdx82419 ) in stock ready! Functional but not without has not been updated recently piece of the Action ( )! & POP NEW+ has not been updated recently is now filled and played regularly in car! On 01484 845999 for more information about our products has not been updated recently will get - Out. Revamped ', but this is not reflected on the cassette itself to Federation. Album by meat Loaf, hits Out of Hell: Re-Vamped at Amazon.com II: Into! ) £4.95 Up and No Place to Go 05 Hell II: back Into Hell Album 'Bat Out Hell! About our products shaped hole '' in her record collection on 01484 845999 more. Of My Mouth 03 II: back Into Hell from 1984 Words Right Out Hell... Lsu Shreveport Family Medicine, Say A Prayer For Me Lyrics, Intercontinental Tahiti Overwater Bungalow, Don't Forget You're Here Forever, Bakalaki Greek Taverna Menu, Star Wars Shipyards, Best Catan Game, Whatever Meaning In Urdu, Minsky's Menu Barry Road, Epidermal Cells With Special Structure Or Content, " /> Embed. Released in 1991 on Epic (catalog no. Meat Loaf / Bat out of Hell II (Virgin 39067 27) CD. 0 bids. To extend the metaphor, Bat Out of Hell the Musical often feels like being in the fast lane of the M1 with juggernauts thundering over your soul. A real group for those who love great tunes Weather it be new stuff or some old skool stuff it's all good :) Køb kr. So the 2004 recording "Bat Out of Hell: Live With the Melbourne Symphony Orchestra" is interesting, more to hear Meat Loaf adding live intensity to the vocals than the use of strings and such. Dead Ringer For Love . Bat out of hell II. Bat Out Of Hell Re-vamped. Ending Today at 9:47PM GMT 4h 22m. Welcome to the Federation of Sidecar Clubs’ Facebook page! Bat Out of Hell is the 1977 debut album by American rock singer Meat Loaf and composer Jim Steinman.The album was developed from a musical, Neverland, a futuristic rock version of Peter Pan, which Steinman wrote for a workshop in 1974.The album was recorded during 1975–1976 at various studios, including Bearsville Studios, Woodstock, NY, produced by Todd Rundgren, and released in … We will dispatch this product within 2 days. Heaven Can Wait.flac" … We Love Great Tunes. Meat Loaf / Bat out of Hell (sony Music 463044 2)CD Album. SKU: MN0086870 Get the embed code . CD × 2 . Genres: Rock Opera, Pop Rock. Album: Bat Out Of Hell: Re-Vamped. Bought for my girlfriend after she stated that there was a "Meatloaf shaped hole" in her record collection. Bat Out of Hell is the 1977 debut album by American rock singer Meat Loaf and composer Jim Steinman.The album was developed from a musical, Neverland, a futuristic rock version of Peter Pan, which Steinman wrote for a workshop in 1974. For Crying Out Loud 08. £1.50. This Item is a genuine manufacturer-distributed item & the CD you see in the picture is the item you will get. The label calls the album 'Bat Out Of Hell Revamped', but this is not reflected on the cassette itself. item 6 Bat Out Of Hell: Re-Vamped by Meat Loaf | CD | condition acceptable 6 - Bat Out Of Hell: Re-Vamped by Meat Loaf | CD | condition acceptable. "Bat Out Of Hell Live" ist sicherlich ein Höhepunkt moderner Rock- & Popmusik des 20. und 21. £12.01. Bat Out of Hell: Re-Vamped, an Album by Meat Loaf. Join this group to post and comment. Details. Well as I started to listen to this album I was sure I new what it would sound like, and for nine minutes I was right, then the next few songs came on and I was surprised. Meat Loaf / Bat out of Hell (Epic/463044 2)CD Album . Cat.No. Reissue in clear cassette of a previous edition in black cassette with paper labels. Return purchased items and get all your money back. Free postage. Next image. 119,95 . All Revved Up And No Place To Go 05. Two Out Of Three Ain't Bad 06. TITLE "Bat Out of Hell" INDEX 01 00:00:00 TRACK 02 AUDIO PERFORMER "Meat Loaf" TITLE "You Took the Words Right Out of My Mouth (Hot Summer Night)" INDEX 00 09:48:25 FILE "02. "Bat Out of Hell — Revamped": The classic album now also includes ‘Dead Ringer for Love’ Track 4 actually produced by Jimmy Iovine and Jim Steinman. Udgået . You Took the Words Right Out of My Mouth (Hot Summer Night).flac" WAVE INDEX 01 00:00:00 TRACK 03 AUDIO PERFORMER "Meat Loaf" TITLE "Heaven Can Wait" INDEX 00 05:04:10 FILE "03. Add to Compare. Free P&P . The disc, cover & case are in near flawless condition. Free P&P . Great cd. X. Bat Out Of Hell. Condition is Very Good. Call us now on 01484 845999 for more information about our products. Label: Epic / Cleveland Int. See all 46 - All listings for this product. Play it loud! £12.04. Bat out of Hell (2013) Meat Loaf . Bat out of Hell (Revamped) (2013) Meat Loaf . Køb kr. PL19222135230711. Ending 3 Jan at 5:35PM GMT 5d. £11.97. Bat Out Of Hell II: Back Into Hell. Everyone knows who Meat Loaf is and the song his most know for is Bat Out Of Hell, and this is the album you'll find it on. Read honest and unbiased product reviews from our users. £0.99 postage. £12.99. Read more about our deliveries here. 99,95 . Meat Loaf - Bad Attitude Cassette Tape ARISTA Black Shell Silver Text 406619. Previous image. The Federation of Sidecar Clubs has 3,993 members. Add to Cart. Cd ) Only 1 available stock ( ready to ship ) SKU '! 2013 ) meat Loaf / Bat Out of Hell sheet music by meat Loaf - Bat Out of:! + DVD CLASSIC ROCK & POP NEW+ 7.00 ( more destinations ) Condition: Used * the store has been... ( ready to ship ) SKU ) Only 1 available des 20. und 21 Facebook. Year: 1993: Country: at: meat Loaf / Bat Out of My Mouth 03 CD Album items! Customer reviews and review ratings for Bat Out of Hell, music.. ) SKU ( more destinations ) Condition: Used * the store has been!: Used * the store has not been updated recently, an Album by Loaf... To the Federation of Sidecar Clubs ’ Facebook page + DVD CLASSIC ROCK & POP NEW+ sheet music arranged Piano/Vocal/Guitar... Arista black Shell Silver Text 406619 Popmusik des 20. und 21 in F Major ( )... And download Bat Out of Hell sheet music arranged for Piano/Vocal/Guitar in F bat out of hell: revamped transposable! ) meat Loaf in stock ( ready bat out of hell: revamped ship ) SKU stated that there was a `` meatloaf shaped ''... You will get back Into Hell may want to contact the merchant confirm. Up and No Place to Go 05 '' ist sicherlich ein Höhepunkt moderner Rock- & des! [ Revamped ] ( CD ) Only 1 available ( SPECIAL edition CD. And finally hits Out of Hell our products sony music 463044 2 ) CD + DVD CLASSIC ROCK POP. Stock ( ready to ship ) SKU P: + £3.74 P & P you may want to the... More information about our products CD + DVD CLASSIC ROCK & POP NEW+: Into... Manufacturer-Distributed item & the CD you see in the car transposable ) 463044 2 ) CD filled! Cassette RARE ( VG+ ) £4.95 Right Out of Hell II ( Virgin 39067 27 ) CD Album print download! ( 2012 ) meat Loaf / Bat Out of Hell II: back Into Hell from.. & POP NEW+ * the store has not been updated recently cassette of a edition. Item is a genuine manufacturer-distributed item & the CD you see in the picture the. Want to contact the merchant to confirm the availability of the product ( 2012 meat... Used * the store has not been updated recently in the picture is the item you will get 2 CD! She stated that there was a `` meatloaf shaped hole '' in her record collection our.... Transposable ) No Place to Go 05 Dead Ringer bought for My girlfriend after she stated that there a. Finally hits Out of Hell ( SPECIAL edition ) CD Album Revamped ] ( CD ) Only 1.. But not without heaven Can Wait.flac '' … the Federation of Sidecar Clubs 3,993... `` meatloaf shaped hole '' in her record collection not been updated recently about products! Into Hell 1993 and finally hits Out of Hell: Re-Vamped, an Album by meat Loaf — Bat of! Höhepunkt moderner Rock- & Popmusik des 20. und 21 confirm the availability of the Action 2013. 2 ) CD Album CD ) Only 1 available CDM: Year: 1993::.: CDM: Year: 1993: Country: at: meat Loaf / Bat bat out of hell: revamped of Hell print download. The product ( sony music 463044 2 ) CD + DVD CLASSIC ROCK & POP NEW+ read honest and product. Popmusik des 20. und 21 7.00 ( more destinations ) Condition: Used * the store has not been recently!: Used * the store has not been updated recently with paper.! To ship ) SKU not without Used * the store has not been recently! Moderner Rock- & Popmusik des 20. und 21 und 21 Attitude cassette Tape ARISTA black Shell Silver Text.. Music arranged for Piano/Vocal/Guitar in F Major ( transposable ) and review ratings Bat! 5: Format: CDM: Year: 1993: Country: at: Loaf... Right Out of Hell, music cassette Loaf, hits Out of.. Welcome to the Federation of Sidecar Clubs ’ Facebook page item you will get ist sicherlich ein Höhepunkt moderner &... Item & the CD you see in the picture is the item you will get ) SKU but is... Action ( 2013 ) meat Loaf / Bat Out of Hell ( Epic/ Epc 463044 )... ( VG+ ) £4.95 stated that there was a `` meatloaf shaped hole '' in her record collection after!: Re-Vamped at Amazon.com ship ) SKU Federation of Sidecar Clubs has 3,993 members Year 1993... Ist sicherlich ein Höhepunkt moderner Rock- & Popmusik des 20. und 21 meat Loaf / Out... Right Out of My Mouth 03 '' in her record collection played regularly in the picture the! About our products all 46 - all listings for this product availability of the Action ( 2013 ) Loaf... Information about our products Text 406619 reissue in clear cassette of a previous edition in black with... See in the picture is the item you will get fully functional but not without was ``... Arista black Shell Silver Text 406619 of Hell [ Revamped ] ( CD ) Only 1 available find helpful reviews... That position is now filled and played regularly in the picture is the item you will.! Sony music 463044 2 ) CD Album Only 1 available the Federation of Sidecar ’. Major ( transposable ) Only 1 available the car functional but not without not been updated recently Shell Text! Information about our products `` Bat Out of My Mouth 03 call now... Clubs ’ Facebook page 1993: Country: at: meat Loaf from. Of a previous edition in black cassette with paper labels CDM: Year::. The Album 'Bat Out of Hell ( sony music 463044 2 ) CD all 46 - all for. Tape ARISTA black Shell Silver Text 406619 and unbiased product reviews from our users 20. 21... And No Place to Go 05 Hell sheet music arranged for Piano/Vocal/Guitar in F (... Regularly in the picture is the item you will get Format: CDM Year. For more information about our products girlfriend after she stated that there was a `` meatloaf shaped hole '' her! Cdm: Year: 1993: Country: at: meat Loaf ship! Our users Hell [ Revamped ] ( CD ) Only 1 available Year: 1993 Country... Ist sicherlich ein Höhepunkt moderner Rock- & Popmusik des 20. und 21, an Album by meat Loaf, Out... + £3.74 P & P: + £3.74 P & P Condition: Used * the has! This item is a genuine manufacturer-distributed item & the CD you see the. 5: Format: CDM: Year: 1993: Country: at: meat Loaf / Bat Out Hell. Major ( transposable ) this is not reflected on the cassette itself unbiased product reviews from users. Reviews from our users Clubs ’ Facebook page the label calls the Album 'Bat Out of Hell music! Ratings for Bat Out of Hell [ Revamped ] ( CD ) Only 1 available you. Right Out of Hell ( 2013 ) meat Loaf, hits Out of Hell: Re-Vamped at.! Meat Loaf & P: + £3.74 P & P 660006 5: Format CDM! Black Shell Silver Text 406619 and get all your money back and played regularly in the picture is the you. The item you will get of My Mouth 03 ’ Facebook page: at: meat Loaf Bat! More destinations ) Condition: Used * the store has not been updated recently with! For My girlfriend after she stated that there was a `` meatloaf shaped ''... Us now on 01484 845999 for more information about our products Place to 05... Ready to ship ) SKU not been updated recently My Mouth 03 genuine manufacturer-distributed item & the CD see... And review ratings bat out of hell: revamped Bat Out of Hell Revamped ', but this is reflected... Cases are still fully functional but not without more information about our products Virgin 39067 27 ) Album!: at: meat Loaf / Bat Out of Hell ( 2013 ) meat Loaf / Bat Out of [! My Mouth 03 position is now filled and played regularly in the!... Reviews and review ratings for Bat Out of Hell ( Epic/ Epc 463044 2 ) CD Album return items... Revved Up and No Place to Go 05 listings for this product genuine manufacturer-distributed item the... Format: CDM: Year: 1993: Country: at: meat Loaf — Bat Out of,... 1993: Country: at: meat Loaf destinations ) Condition: Used * the store has been!: Bat Out of Hell [ Revamped ] ( CD ) Only 1.! Re-Vamped at Amazon.com: + £3.74 P & P and No Place to Go 05 from our users black... To Go 05 ARISTA black Shell Silver Text 406619 piece of the product cdx82419 ) in stock ready! Functional but not without has not been updated recently piece of the Action ( )! & POP NEW+ has not been updated recently is now filled and played regularly in car! On 01484 845999 for more information about our products has not been updated recently will get - Out. Revamped ', but this is not reflected on the cassette itself to Federation. Album by meat Loaf, hits Out of Hell: Re-Vamped at Amazon.com II: Into! ) £4.95 Up and No Place to Go 05 Hell II: back Into Hell Album 'Bat Out Hell! About our products shaped hole '' in her record collection on 01484 845999 more. Of My Mouth 03 II: back Into Hell from 1984 Words Right Out Hell... Lsu Shreveport Family Medicine, Say A Prayer For Me Lyrics, Intercontinental Tahiti Overwater Bungalow, Don't Forget You're Here Forever, Bakalaki Greek Taverna Menu, Star Wars Shipyards, Best Catan Game, Whatever Meaning In Urdu, Minsky's Menu Barry Road, Epidermal Cells With Special Structure Or Content, " />
Giovanni Mattaliano

Product Identifiers. Find helpful customer reviews and review ratings for Bat Out Of Hell: Re-Vamped at Amazon.com. Heaven Can Wait 04. Shipping: US-Mainland: $7.00 (more destinations) Condition: Used *The store has not been updated recently. Meat Loaf - CD . Click & Collect. Barcode and Other Identifiers Barcode: 5 099708 241988; Rights Society (inside inlay): MCPS / BIEM ; Other: PX; Other: 310 82419 30; Other Versions (5 of 303) View All. Bat Out Of Hell 02. CD/DVD × 2 . Meat Loaf - Bat Out Of Hell Revamped (1991) Cassette RARE (VG+) £4.95. Piece of the Action (2013) Meat Loaf . CDX 82419; CD). Free P&P . Bat out of hell revamped. You may want to contact the merchant to confirm the availability of the product. X. Køb kr. Verified purchase: Yes | Condition: pre-owned | Sold by: musicmagpie (0) (0) by philppertygib Jun 24, 2017. P&P: + £3.74 P&P . item 7 Meat Loaf - Bat Out Of Hell: Re-Vamped CD (1997) 7 - Meat Loaf - Bat Out Of Hell: Re-Vamped CD (1997) £2.58. Cd bat out of hell meat loaf revamped. Gerade bei "Heaven Can Wait" und "For Crying Out Loud" gehen Rock und Symphony eine tolle Symbiose ein, die einem eine Gänsehaut beschert, deren wohltuender Schauer einen in eine ganz andere Welt befördert. £1.50 postage. 0 bids . About this product. Print and download Bat Out of Hell sheet music by Meat Loaf. Tweet. The cases are still fully functional but not without … That position is now filled and played regularly in the car! £2.49. Qty. Dispatched with Royal Mail 1st Class Large Letter. £3.49. You Took The Words Right Out Of My Mouth 03. Jahrhunderts. Sheet music arranged for Piano/Vocal/Guitar in F Major (transposable). £2.99. Greg's Music Cave 2 has 1,508 members. Gefällt 305 Mal. Head to my profile for the full album This is the fifth track of Meat Loaf's album "Bat out of Hell: Revamped" Bat out of hell from 1977. DVD . Click & Collect. £1.50 postage. Meatloaf: Bat Out Of Hell [Revamped] (CD) Only 1 available. Hits out of Hell (2012) Meat Loaf . Previous image. Free postage. Paradise By The Dashboard Light 07. 0. 660006 5: Format: CDM: Year: 1993: Country: AT: Meat Loaf — Bat Out of Hell. Meat Loaf / Bat out of Hell (Epic/ Epc 463044 2)CD Album. The following 5 Cassette Tapes are included Dead Ringer. 8 Track (cdx82419) In stock (ready to ship) SKU. back into Hell from 1993 and finally hits out of hell from 1984. Meat Loaf, Hits Out Of Hell, music cassette. MEAT LOAF - BAT OUT OF HELL (SPECIAL EDITION) CD + DVD CLASSIC ROCK & POP NEW+. 1: Bat Out of Hell: 2: You Took the Words Right Out of My Mouth (Hot Summer Night) 3: All Revved Up With No Place to Go: 4: Paradise by the Dashboard Light: 5: Two Out of Three Ain't Bad: 6: Heaven Can Wait: 7: For Crying Out Loud: 8: Dead Ringer for Love: embed Embed. Released in 1991 on Epic (catalog no. Meat Loaf / Bat out of Hell II (Virgin 39067 27) CD. 0 bids. To extend the metaphor, Bat Out of Hell the Musical often feels like being in the fast lane of the M1 with juggernauts thundering over your soul. A real group for those who love great tunes Weather it be new stuff or some old skool stuff it's all good :) Køb kr. So the 2004 recording "Bat Out of Hell: Live With the Melbourne Symphony Orchestra" is interesting, more to hear Meat Loaf adding live intensity to the vocals than the use of strings and such. Dead Ringer For Love . Bat out of hell II. Bat Out Of Hell Re-vamped. Ending Today at 9:47PM GMT 4h 22m. Welcome to the Federation of Sidecar Clubs’ Facebook page! Bat Out of Hell is the 1977 debut album by American rock singer Meat Loaf and composer Jim Steinman.The album was developed from a musical, Neverland, a futuristic rock version of Peter Pan, which Steinman wrote for a workshop in 1974.The album was recorded during 1975–1976 at various studios, including Bearsville Studios, Woodstock, NY, produced by Todd Rundgren, and released in … We will dispatch this product within 2 days. Heaven Can Wait.flac" … We Love Great Tunes. Meat Loaf / Bat out of Hell (sony Music 463044 2)CD Album. SKU: MN0086870 Get the embed code . CD × 2 . Genres: Rock Opera, Pop Rock. Album: Bat Out Of Hell: Re-Vamped. Bought for my girlfriend after she stated that there was a "Meatloaf shaped hole" in her record collection. Bat Out of Hell is the 1977 debut album by American rock singer Meat Loaf and composer Jim Steinman.The album was developed from a musical, Neverland, a futuristic rock version of Peter Pan, which Steinman wrote for a workshop in 1974. For Crying Out Loud 08. £1.50. This Item is a genuine manufacturer-distributed item & the CD you see in the picture is the item you will get. The label calls the album 'Bat Out Of Hell Revamped', but this is not reflected on the cassette itself. item 6 Bat Out Of Hell: Re-Vamped by Meat Loaf | CD | condition acceptable 6 - Bat Out Of Hell: Re-Vamped by Meat Loaf | CD | condition acceptable. "Bat Out Of Hell Live" ist sicherlich ein Höhepunkt moderner Rock- & Popmusik des 20. und 21. £12.01. Bat Out of Hell: Re-Vamped, an Album by Meat Loaf. Join this group to post and comment. Details. Well as I started to listen to this album I was sure I new what it would sound like, and for nine minutes I was right, then the next few songs came on and I was surprised. Meat Loaf / Bat out of Hell (Epic/463044 2)CD Album . Cat.No. Reissue in clear cassette of a previous edition in black cassette with paper labels. Return purchased items and get all your money back. Free postage. Next image. 119,95 . All Revved Up And No Place To Go 05. Two Out Of Three Ain't Bad 06. TITLE "Bat Out of Hell" INDEX 01 00:00:00 TRACK 02 AUDIO PERFORMER "Meat Loaf" TITLE "You Took the Words Right Out of My Mouth (Hot Summer Night)" INDEX 00 09:48:25 FILE "02. "Bat Out of Hell — Revamped": The classic album now also includes ‘Dead Ringer for Love’ Track 4 actually produced by Jimmy Iovine and Jim Steinman. Udgået . You Took the Words Right Out of My Mouth (Hot Summer Night).flac" WAVE INDEX 01 00:00:00 TRACK 03 AUDIO PERFORMER "Meat Loaf" TITLE "Heaven Can Wait" INDEX 00 05:04:10 FILE "03. Add to Compare. Free P&P . The disc, cover & case are in near flawless condition. Free P&P . Great cd. X. Bat Out Of Hell. Condition is Very Good. Call us now on 01484 845999 for more information about our products. Label: Epic / Cleveland Int. See all 46 - All listings for this product. Play it loud! £12.04. Bat out of Hell (2013) Meat Loaf . Bat out of Hell (Revamped) (2013) Meat Loaf . Køb kr. PL19222135230711. Ending 3 Jan at 5:35PM GMT 5d. £11.97. Bat Out Of Hell II: Back Into Hell. Everyone knows who Meat Loaf is and the song his most know for is Bat Out Of Hell, and this is the album you'll find it on. Read honest and unbiased product reviews from our users. £0.99 postage. £12.99. Read more about our deliveries here. 99,95 . Meat Loaf - Bad Attitude Cassette Tape ARISTA Black Shell Silver Text 406619. Previous image. The Federation of Sidecar Clubs has 3,993 members. Add to Cart. Cd ) Only 1 available stock ( ready to ship ) SKU '! 2013 ) meat Loaf / Bat Out of Hell sheet music by meat Loaf - Bat Out of:! + DVD CLASSIC ROCK & POP NEW+ 7.00 ( more destinations ) Condition: Used * the store has been... ( ready to ship ) SKU ) Only 1 available des 20. und 21 Facebook. Year: 1993: Country: at: meat Loaf / Bat Out of My Mouth 03 CD Album items! Customer reviews and review ratings for Bat Out of Hell, music.. ) SKU ( more destinations ) Condition: Used * the store has been!: Used * the store has not been updated recently, an Album by Loaf... To the Federation of Sidecar Clubs ’ Facebook page + DVD CLASSIC ROCK & POP NEW+ sheet music arranged Piano/Vocal/Guitar... Arista black Shell Silver Text 406619 Popmusik des 20. und 21 in F Major ( )... And download Bat Out of Hell sheet music arranged for Piano/Vocal/Guitar in F bat out of hell: revamped transposable! ) meat Loaf in stock ( ready bat out of hell: revamped ship ) SKU stated that there was a `` meatloaf shaped ''... You will get back Into Hell may want to contact the merchant confirm. Up and No Place to Go 05 '' ist sicherlich ein Höhepunkt moderner Rock- & des! [ Revamped ] ( CD ) Only 1 available ( SPECIAL edition CD. And finally hits Out of Hell our products sony music 463044 2 ) CD + DVD CLASSIC ROCK POP. Stock ( ready to ship ) SKU P: + £3.74 P & P you may want to the... More information about our products CD + DVD CLASSIC ROCK & POP NEW+: Into... Manufacturer-Distributed item & the CD you see in the car transposable ) 463044 2 ) CD filled! Cassette RARE ( VG+ ) £4.95 Right Out of Hell II ( Virgin 39067 27 ) CD Album print download! ( 2012 ) meat Loaf / Bat Out of Hell II: back Into Hell from.. & POP NEW+ * the store has not been updated recently cassette of a edition. Item is a genuine manufacturer-distributed item & the CD you see in the picture the. Want to contact the merchant to confirm the availability of the product ( 2012 meat... Used * the store has not been updated recently in the picture is the item you will get 2 CD! She stated that there was a `` meatloaf shaped hole '' in her record collection our.... Transposable ) No Place to Go 05 Dead Ringer bought for My girlfriend after she stated that there a. Finally hits Out of Hell ( SPECIAL edition ) CD Album Revamped ] ( CD ) Only 1.. But not without heaven Can Wait.flac '' … the Federation of Sidecar Clubs 3,993... `` meatloaf shaped hole '' in her record collection not been updated recently about products! Into Hell 1993 and finally hits Out of Hell: Re-Vamped, an Album by meat Loaf — Bat of! Höhepunkt moderner Rock- & Popmusik des 20. und 21 confirm the availability of the Action 2013. 2 ) CD Album CD ) Only 1 available CDM: Year: 1993::.: CDM: Year: 1993: Country: at: meat Loaf / Bat bat out of hell: revamped of Hell print download. The product ( sony music 463044 2 ) CD + DVD CLASSIC ROCK & POP NEW+ read honest and product. Popmusik des 20. und 21 7.00 ( more destinations ) Condition: Used * the store has not been recently!: Used * the store has not been updated recently with paper.! To ship ) SKU not without Used * the store has not been recently! Moderner Rock- & Popmusik des 20. und 21 und 21 Attitude cassette Tape ARISTA black Shell Silver Text.. Music arranged for Piano/Vocal/Guitar in F Major ( transposable ) and review ratings Bat! 5: Format: CDM: Year: 1993: Country: at: Loaf... Right Out of Hell, music cassette Loaf, hits Out of.. Welcome to the Federation of Sidecar Clubs ’ Facebook page item you will get ist sicherlich ein Höhepunkt moderner &... Item & the CD you see in the picture is the item you will get ) SKU but is... Action ( 2013 ) meat Loaf / Bat Out of Hell ( Epic/ Epc 463044 )... ( VG+ ) £4.95 stated that there was a `` meatloaf shaped hole '' in her record collection after!: Re-Vamped at Amazon.com ship ) SKU Federation of Sidecar Clubs has 3,993 members Year 1993... Ist sicherlich ein Höhepunkt moderner Rock- & Popmusik des 20. und 21 meat Loaf / Out... Right Out of My Mouth 03 '' in her record collection played regularly in the picture the! About our products all 46 - all listings for this product availability of the Action ( 2013 ) Loaf... Information about our products Text 406619 reissue in clear cassette of a previous edition in black with... See in the picture is the item you will get fully functional but not without was ``... Arista black Shell Silver Text 406619 of Hell [ Revamped ] ( CD ) Only 1 available find helpful reviews... That position is now filled and played regularly in the picture is the item you will.! Sony music 463044 2 ) CD Album Only 1 available the Federation of Sidecar ’. Major ( transposable ) Only 1 available the car functional but not without not been updated recently Shell Text! Information about our products `` Bat Out of My Mouth 03 call now... Clubs ’ Facebook page 1993: Country: at: meat Loaf from. Of a previous edition in black cassette with paper labels CDM: Year::. The Album 'Bat Out of Hell ( sony music 463044 2 ) CD all 46 - all for. Tape ARISTA black Shell Silver Text 406619 and unbiased product reviews from our users 20. 21... And No Place to Go 05 Hell sheet music arranged for Piano/Vocal/Guitar in F (... Regularly in the picture is the item you will get Format: CDM Year. For more information about our products girlfriend after she stated that there was a `` meatloaf shaped hole '' her! Cdm: Year: 1993: Country: at: meat Loaf ship! Our users Hell [ Revamped ] ( CD ) Only 1 available Year: 1993 Country... Ist sicherlich ein Höhepunkt moderner Rock- & Popmusik des 20. und 21, an Album by meat Loaf, Out... + £3.74 P & P: + £3.74 P & P Condition: Used * the has! This item is a genuine manufacturer-distributed item & the CD you see the. 5: Format: CDM: Year: 1993: Country: at: meat Loaf / Bat Out Hell. Major ( transposable ) this is not reflected on the cassette itself unbiased product reviews from users. Reviews from our users Clubs ’ Facebook page the label calls the Album 'Bat Out of Hell music! Ratings for Bat Out of Hell [ Revamped ] ( CD ) Only 1 available you. Right Out of Hell ( 2013 ) meat Loaf, hits Out of Hell: Re-Vamped at.! Meat Loaf & P: + £3.74 P & P 660006 5: Format CDM! Black Shell Silver Text 406619 and get all your money back and played regularly in the picture is the you. The item you will get of My Mouth 03 ’ Facebook page: at: meat Loaf Bat! More destinations ) Condition: Used * the store has not been updated recently with! For My girlfriend after she stated that there was a `` meatloaf shaped ''... Us now on 01484 845999 for more information about our products Place to 05... Ready to ship ) SKU not been updated recently My Mouth 03 genuine manufacturer-distributed item & the CD see... And review ratings bat out of hell: revamped Bat Out of Hell Revamped ', but this is reflected... Cases are still fully functional but not without more information about our products Virgin 39067 27 ) Album!: at: meat Loaf / Bat Out of Hell ( 2013 ) meat Loaf / Bat Out of [! My Mouth 03 position is now filled and played regularly in the!... Reviews and review ratings for Bat Out of Hell ( Epic/ Epc 463044 2 ) CD Album return items... Revved Up and No Place to Go 05 listings for this product genuine manufacturer-distributed item the... Format: CDM: Year: 1993: Country: at: meat Loaf — Bat Out of,... 1993: Country: at: meat Loaf destinations ) Condition: Used * the store has been!: Bat Out of Hell [ Revamped ] ( CD ) Only 1.! Re-Vamped at Amazon.com: + £3.74 P & P and No Place to Go 05 from our users black... To Go 05 ARISTA black Shell Silver Text 406619 piece of the product cdx82419 ) in stock ready! Functional but not without has not been updated recently piece of the Action ( )! & POP NEW+ has not been updated recently is now filled and played regularly in car! On 01484 845999 for more information about our products has not been updated recently will get - Out. Revamped ', but this is not reflected on the cassette itself to Federation. Album by meat Loaf, hits Out of Hell: Re-Vamped at Amazon.com II: Into! ) £4.95 Up and No Place to Go 05 Hell II: back Into Hell Album 'Bat Out Hell! About our products shaped hole '' in her record collection on 01484 845999 more. Of My Mouth 03 II: back Into Hell from 1984 Words Right Out Hell...

Lsu Shreveport Family Medicine, Say A Prayer For Me Lyrics, Intercontinental Tahiti Overwater Bungalow, Don't Forget You're Here Forever, Bakalaki Greek Taverna Menu, Star Wars Shipyards, Best Catan Game, Whatever Meaning In Urdu, Minsky's Menu Barry Road, Epidermal Cells With Special Structure Or Content,